Bit Torrent Scene a public file sharing platform Home Upload Categories Collections Blog About

The Turning Point [1952]

DOWNLOAD TORRENT DOWNLOAD DOWNLOAD ANONYMOUS

Posted on March 9, 2010 in Movies » Misc , downloaded 83 times

Size: 1.03 GB , Seeds: 2 , Peers: 1 ( Updated July 2, 2015 - Refresh )

* Download via Magnet Link , * To download files you need a Bittorrent Client , * How to download torrents from Bit Torrent Scene?

advertising ( remove )

External Info

Subtitles | Trailer | Wikipedia | Other Info

Internal Files

THE TURNING POINT (1952)
The Turning Point.divx   1.03 GB
Torrent downloaded from Demonoid.com.txt   47 Byte

Hash Code

27a740fa65b364a635e136f1a1acae5ca7d0cc4a

Description


Movies : Crime : Other quality : English
.
http://www.imdb.com/title/tt0045267/

Special prosecutor John Conroy hopes to combat organized crime in his city, and appoints his cop father Matt as chief investigator. John doesn't understand why Matt is reluctant, but cynical reporter Jerry McKibbon thinks he knows: he's seen Matt with mob lieutenant Harrigan. Jerry's friendship for John is tested by the question of what to do about Matt, and by his attraction to John's girl Amanda. Meanwhile, the threatened racketeers adopt increasingly violent means of defense.

General
Complete name : Z:SeedboxTHE TURNING POINT (1952)The Turning Point.divx
Format : DivX
Format/Info : Hack of AVI
File size : 1.03 GiB
Duration : 1h 25mn
Overall bit rate : 1 727 Kbps

Video
Format : MPEG-4 Visual
Format settings, BVOP : Yes
Format settings, QPel : No
Format settings, GMC : No warppoints
Format settings, Matrix : Default
Muxing mode : Packed bitstream
Codec ID : DX50
Codec ID/Hint : DivX 5
Duration : 1h 25mn
Bit rate : 1 590 Kbps

Width : 640 pixels
Height : 480 pixels

Display aspect ratio : 4/3
Frame rate : 23.979 fps
Resolution : 24 bits
Colorimetry : 4:2:0
Scan type : Progressive

Bits/(Pixel*Frame) : 0.216
Stream size : 967 MiB (92%)
Title : Main
Writing library : DivX 2816

Audio
Format : MPEG Audio
Format version : Version 1
Format profile : Layer 3
Codec ID : 55
Codec ID/Hint : MP3
Duration : 1h 25mn
Bit rate mode : Constant
Bit rate : 128 Kbps
Channel(s) : 2 channels
Sampling rate : 48.0 KHz
Resolution : 16 bits
Stream size : 77.9 MiB (7%)
Alignment : Split accross interleaves
Interleave, duration : 42 ms (1.00 video frame)
Interleave, preload duration : 500 ms
Title : Audio
Writing library : LAME3.97

Scrape History ( seeds + peers )

Trackers

Refresh Leechers : Updated July 2, 2015

1. http://tracker.thepiratebay.org/announce

2. udp://tracker.thepiratebay.org:80/announce

3. http://inferno.demonoid.com:3393/announce

4. udp://tracker.openbittorrent.com:80/announce

5. http://tracker.openbittorrent.com/announce

Comments

You must log in to add a comment.

Embed Code

Sharing Widget

Related torrents

FILENAME SIZE SEEDS PEERS ADDED UPD
[i] TNA Impact Wrestling Turning Point 2015 08 19 HDTV x264-jkkk -={SPARROW}=- 942.57 MB 51 4 2 weeks 2 days
[i] The Vampire Diaries S01E10 The Turning Point HDTV XviD-FQM [eztv] 350.65 MB 37 6 5 years 2 months
[i] [R.G. Mechanics] Turning Point - Fall of Liberty 2.7 GB 14 2 2 years 8 months
[i] Wittgenstein, Turning Point in the Philosophy of Mathematics [PDF] [StormRG] 6.96 MB 7 0 1 year 2 months
[i] The Turning Point 1977 720p BRRip x264-PLAYNOW 889.32 MB 6 2 2 years 5 months
[i] Mayday.Air.Crash.Investigation.S11E06.Turning.Point.WEBRIP.Xvid.avi 198.82 MB 4 0 3 years 9 months
[i] Paul Bley - Turning Point (1975) [EAC-FLAC] 211.32 MB 4 0 2 weeks 3 days
[i] TNA.Turning.Point.2012.HDTV.x264-NWCHD 1.94 GB 2 2 2 years 9 months
[i] The.Turning.Point.1977.720p.BluRay.x264-NORDiCHD [PublicHD] 4.37 GB 2 1 2 years 5 months
[i] TNA.Turning.Point.2011.HDTV.x264-NWCHD 1.6 GB 1 0 3 years 9 months

Top Movies ( auto generated report )

FILENAME SIZE SEEDS PEERS ADDED UPD
[i] Rudderless (2014) 720p BrRip x264 - YIFY
Movies - Comedy , Quality: Audio 9/10 - Video 9/10
808.5 MB 6001 3864 2 days 21 hours
[i] Minions.2015.HDRip.XViD ETRG
Movies - Animation , Quality: Audio 8/10 - Video 8/10
708.3 MB 13380 10954 2 days 4 hours
[i] Faraar (2015) PUNJABI CAM XviD-SSM.mp4 300.15 MB 4039 2730 10 hours 6 hours
[i] The Rise of the Krays (2015) 720p BrRip x264 - YIFY
Movies - Thriller , Quality: Audio 9/10 - Video 9/10
816.5 MB 3015 1090 2 days 1 day
[i] Southpaw 2015 720p WEB-DL x264 AAC-ETRG
Movies - Drama , Quality: Audio 9/10 - Video 9/10
930.93 MB 2582 1413 3 days 2 days
[i] WELCOME BACK (2015) - Hindi - Desi SCR - x264 - 1xCD - AAC - ChapS - DrC [6th Anniversary Spcl]
Movies - Comedy , Quality: Audio 6/10 - Video 6/10
702.3 MB 6395 14327 21 hours 1 hour
[i] The Rise of the Krays (2015) 1080p BrRip x264 - YIFY
Movies - Thriller , Quality: Audio 9/10 - Video 9/10
1.65 GB 2511 2201 2 days 6 hours
[i] Love & Mercy (2014) 720p BrRip x264 - YIFY
Movies - Drama , Quality: Audio 9/10 - Video 9/10
872.5 MB 2326 1438 3 days 2 days
[i] Dirty Weekend 2015 HDRip XviD AC3-EVO 1.41 GB 2284 4595 21 hours 6 hours
[i] Rudderless (2014) 1080p BrRip x264 - YIFY
Movies - Misc , Quality: Audio 9/10 - Video 9/10
1.64 GB 1722 1575 1 day 17 hours