Bit Torrent Scene a public file sharing platform Home Upload Categories Collections Blog About

The Exorcist (1973) Extended Directors Cut 3D.mkv

Posted on December 14, 2012 in Movies » Horror , downloaded 15 times , verified torrent

Size: 11.53 GB , Seeds: 0 , Peers: 0 ( Updated December 18, 2014 - Refresh )

* Download via Magnet Link , * To download files you need a Bittorrent Client , * How to download torrents from Bit Torrent Scene?

advertising ( remove )

Internal Files

The Exorcist (1973) Extended Directors Cut 3D.mkv
The Exorcist (1973) Extended Directors Cut 3D.mkv   11.52 GB

Hash Code

6c4d0703875acb9bcc2e5c4e9fe9ea7b0ee359b9

Description


The Exorcist (1973) Extended Directors Cut Blu ray rip 720p



DVDFAB 3D converted 3DTV SBS active shutter





http://www.imdb.com/title/tt0070047/









Video

ID : 1

Format : AVC

Format/Info : Advanced Video Codec

Format profile : High@L4.1

Format settings, CABAC : Yes

Format settings, ReFrames : 2 frames

Format settings, GOP : M=3, N=15

Codec ID : V_MPEG4/ISO/AVC

Duration : 2h 12mn

Bit rate mode : Variable

Bit rate : 11.7 Mbps

Maximum bit rate : 18.0 Mbps

Width : 1280 pixels

Height : 720 pixels

Display aspect ratio : 16:9

Frame rate : 23.976 fps

Color space : YUV

Chroma subsampling : 4:2:0

Bit depth : 8 bits

Scan type : Progressive

Bits/(Pixel*Frame) : 0.530

Stream size : 10.8 GiB (94%)

Default : Yes

Forced : No



Audio

ID : 2

Format : AC-3

Format/Info : Audio Coding 3

Mode extension : CM (complete main)

Codec ID : A_AC3

Duration : 2h 12mn

Bit rate mode : Constant

Bit rate : 512 Kbps

Channel(s) : 6 channels

Channel positions : Front: L C R, Side: L R, LFE

Sampling rate : 48.0 KHz

Bit depth : 16 bits

Compression mode : Lossy

Stream size : 485 MiB (4%)

Default : Yes

Forced : No




Torrent location

http://kat.ph/the-exorcist-1973-extended-directors-cut-3d-mkv-t6901447.html

Scrape History ( seeds + peers )

Trackers

Refresh Leechers : Updated December 18, 2014

1. udp://tracker.publicbt.com:80/announce

2. udp://tracker.openbittorrent.com:80/announce

3. udp://fr33domtracker.h33t.com:3310/announce

4. udp://tracker.istole.it:80/announce

Comments

You must log in to add a comment.

Embed Code

Sharing Widget

Related torrents

FILENAME SIZE SEEDS PEERS ADDED UPD
[i] The Exorcist (1973) Extended Directors Cut.mkv 11.49 GB 0 0 2 years 8 months
[i] The Exorcist (1973) Extended Directors Cut 3D.mkv 11.53 GB 0 0 2 years 7 months
[i] The.Exorcist.1973.Extended.Directors.Cut.Bluray.1080p.DTS-HD-5.1 18.26 GB 0 10 8 months 2 months

Top Movies ( auto generated report )

FILENAME SIZE SEEDS PEERS ADDED UPD
[i] Hot Pursuit (2015) 720p BrRip x264 - YIFY
Movies - Action , Quality: Audio 9/10 - Video 9/10
700.5 MB 23271 10407 1 day 10 hours
[i] Insurgent 2015 FRENCH BDRiP XViD-AViTECH avi
Movies - Sci-Fi , Quality: Audio 9/10 - Video 9/10
1.37 GB 12823 6248 2 days 1 day
[i] Everly 2014 FRENCH BRRip XviD-SVR avi 699.82 MB 7887 3337 2 days 1 day
[i] Hot Pursuit (2015) 1080p BrRip x264 - YIFY
Movies - Misc , Quality: Audio 9/10 - Video 9/10
1.24 GB 7795 7066 1 day 14 hours
[i] Child 44 2015 FRENCH BDRiP XViD-AViTECH avi 1.3 GB 6742 3629 2 days 1 day
[i] Pixels {2015} HDCAM NEW SOURCE XViD AC3-MRG
Movies - Comedy , Quality: Audio 7/10 - Video 7/10
1.42 GB 5556 4598 1 day 10 hours
[i] Unfriended.2014.HDRip.XViD-ETRG
Movies - Horror , Quality: Audio 9/10 - Video 9/10
709.57 MB 4946 5784 1 day 10 hours
[i] Furious Seven 2015 EXTENDED FRENCH BDRip XviD-GLUPS 1.36 GB 4833 907 18 hours 16 hours
[i] Unfriended 2014 1080p WEB-DL DD5 1 H264-RARBG
Movies - Horror , Quality: Audio 9/10 - Video 9/10
3.22 GB 2996 1832 1 day 10 hours
[i] Appetites 2015 DVDRip XviD-EVO
Movies - Horror , Quality: Audio 8/10 - Video 8/10
1.03 GB 2977 3038 2 days 10 hours