Bit Torrent Scene a public file sharing platform Home Upload Categories Collections Blog About

Rio Bravo (1959)[BRRip.x264.AC3][Lektor/Napisy PL][English]

Posted by alE13 •1052 on July 27, 2013 in Movies » Adventure , downloaded 35 times , verified torrent

Size: 3.42 GB , Seeds: 0 , Peers: 0 ( Updated December 29, 2014 - Refresh )

* Download via Magnet Link , * To download files you need a Bittorrent Client , * How to download torrents from Bit Torrent Scene?

advertising ( remove )

External Info

Subtitles | Trailer | Wikipedia | Other Info

Internal Files

Rio Bravo (1959)-alE13
Rio Bravo (1959)-alE13.mkv   3.39 GB
Sample.mkv   31.45 MB
Rio Bravo.srt   129.99 KB
Nostalgie1.jpg   129.67 KB
2.jpg   125.11 KB
___alE13___2013-07-25-07h47m06s204.jpg   110.27 KB
___alE13___2013-07-27-06h52m28s50.jpg   98.46 KB
___alE13___2013-07-27-07h04m03s85.jpg   72.87 KB
txt.jpg   70.32 KB
___alE13___2013-07-25-07h54m47s249.jpg   66.21 KB
___alE13___2013-07-27-06h51m45s91.jpg   62.92 KB
___alE13___2013-07-25-07h46m44s45.jpg   57.85 KB
Torrent downloaded from alE13 torrents at BTScene.org.txt   120 Byte

Hash Code

ed0256d858f2ad9e353e438b05b490085a0c5179

Description

SCREENSHOT

produkcja: USA
gatunek: Western
data premiery: 1959-03-18
reżyseria: Howard Hawks , Jules Furthman
scenariusz: Leigh Brackett
zdjęcia: Russell Harlan
muzyka: Dimitri Tiomkin
czas: 02:21:06

Opis Filmu:

A small-town sheriff in the American West enlists the help of a cripple, a drunk,
and a young gunfighter in hisefforts to hold in jail the brother of the local bad guy.

Jeden z najlepszych westernów w historii kinematografii. Szeryf John Chance musi zapobiec
ucieczce z więzienia wpływowego zabójcy. Jego pozostający na wolności przyjaciele planują
odbicie więźnia. Szeryfowi pomaga jedynie alkoholik Dude, staruch Stumpy i przystojny Colorado.

SCREENSHOT
SCREENSHOT
SCREENSHOT
SCREENSHOT
SCREENSHOT

Obsada:

John Wayne : John T. Chance
Dean Martin : Dude
Ricky Nelson : Colorado Ryan
Angie Dickinson : Feathers
Walter Brennan : Stumpy

dane techniczne:

Rio Bravo (1959)-alE13.mkv
Format : Matroska
Format version : Version 4 / Version 2
File size : 3.39 GiB
Duration : 2h 21mn
Overall bit rate : 3 436 Kbps
Movie name : Rio Bravo (1959)_Rip.-alE13
Encoded date : UTC 2013-07-27 04:53:45
Writing application : mkvmerge v6.3.0
Writing library : libebml v1.3.0 + libmatroska v1.4.0

Video
ID : 1
Format : AVC
Format/Info : Advanced Video Codec
Format profile : High@L3.1
Format settings, CABAC : Yes
Format settings, ReFrames : 2 frames
Codec ID : V_MPEG4/ISO/AVC
Duration : 2h 21mn
Bit rate : 2 890 Kbps
Width : 1 280 pixels
Height : 720 pixels
Display aspect ratio : 16:9
Frame rate mode : Constant
Frame rate : 23.976 fps
Color space : YUV
Chroma subsampling : 4:2:0
Bit depth : 8 bits
Scan type : Progressive
Bits/(Pixel*Frame) : 0.131
Stream size : 2.78 GiB (82%)
Title : Rio Bravo (1959)_Rip.-alE13
Writing library : x264 core 112 r1834 a51816a

Audio #1
ID : 2
Format : AC-3
Format/Info : Audio Coding 3
Mode extension : CM (complete main)
Format settings, Endianness : Big
Codec ID : A_AC3
Duration : 2h 21mn
Bit rate mode : Constant
Bit rate : 224 Kbps
Channel(s) : 2 channels
Channel positions : Front: L R
Sampling rate : 48.0 KHz
Bit depth : 16 bits
Compression mode : Lossy
Stream size : 226 MiB (7%)
Title : Rio Bravo (1959)-alE13_AC3 @ 224 Kbps
Language : Polish

Audio #2
ID : 3
Format : AC-3
Format/Info : Audio Coding 3
Mode extension : CM (complete main)
Format settings, Endianness : Big
Codec ID : A_AC3
Duration : 2h 21mn
Bit rate mode : Constant
Bit rate : 320 Kbps
Channel(s) : 6 channels
Channel positions : Front: L C R, Side: L R, LFE
Sampling rate : 48.0 KHz
Bit depth : 16 bits
Compression mode : Lossy
Stream size : 323 MiB (9%)
Title : Rio Bravo (1959)-alE13_AC3 @ 320 Kbps
Language : English

Text
ID : 4
Format : UTF-8
Codec ID : S_TEXT/UTF8
Codec ID/Info : UTF-8 Plain Text
Title : Rio Bravo (1959)-alE13
Language : Polish

Scrape History ( seeds + peers )

Trackers

Refresh Leechers : Updated December 29, 2014

1. http://fr33dom.h33t.com:3310/announce

2. http://divxhunt.me/announce.php

3. http://pimp4003-torrents.me:2710/announce.php

4. http://p2pdl.com:2710/announce

5. http://www.h33t.com:3310/announce

6. udp://fr33dom.h33t.com:3310/announce

7. udp://tracker.openbittorrent.com:80

8. udp://9.rarbg.com:2710/announce

9. udp://tracker.istole.it:80

10. udp://tracker.publicbt.com:80

Comments

You must log in to add a comment.

Embed Code

Sharing Widget

Related torrents

FILENAME SIZE SEEDS PEERS ADDED UPD
[i] VA - Bravo Hits Vol. 88 MP3-DVXT
posted by hkcrew in Music - Misc
374.07 MB 100 3 1 month 2 weeks
[i]
[i]
VA - Bravo The Hits 2014 (2 CD) [MP3 @ 320 KBPS]
posted by aryan_l33t in Music - Pop
388.65 MB 90 10 8 months 2 months
[i] VA - Bravo Hits Vol 89 [2CD] [2015] [MP3-VBR] [H4CKUS] [GloDLS] 280.57 MB 83 11 2 months 21 hours
[i] Bravo Hits Lato 2015 MP3-DIVXTOTAL 241.32 MB 78 5 6 days 6 hours
[i] VA - Bravo Hits 2/2014 MP3-DIVXTOTAL 256.07 MB 36 2 3 weeks 2 weeks
[i] Panic 5 Bravo 2014 DVDRip XViD-ETRG 707.57 MB 27 14 3 months 3 weeks
[i] SEAL Team Bravo - Black Ops I-VII - Eric Meyer 4.14 MB 24 0 2 weeks 6 days
[i]
[i]
VA - Bravo Hits Vol 86 (2 CD) 2014~CBR 320 kbps~ {AryaN L33T}
posted by aryan_l33t in Music - Pop
375.25 MB 21 2 11 months 6 months
[i] Rio.Bravo.1959.1080p.BluRay.x264.anoXmous 2.31 GB 20 6 1 year 6 months
[i]
[i]
VA - Bravo Hits Vol. 85 [2014] [2CD] [Mp3-320]-V3nom [GLT]
373.15 MB 19 3 1 year 2 months

Top Movies ( auto generated report )

FILENAME SIZE SEEDS PEERS ADDED UPD
[i] Terminator Genisys {2015} HQCAM XVID MP3-MRG
Movies - Sci-Fi , Quality: Audio 5/10 - Video 5/10
1.87 GB 8929 10372 20 hours 2 hours
[i] The Silenced 2015 720p HDRip H264-CINEFOX [MovietaM] 2.21 GB 6761 2293 7 hours 5 hours
[i] Inara, the Jungle Girl (2012) 1080p BrRip x264 - YIFY
Movies - Adventure , Quality: Audio 9/10 - Video 9/10
1.24 GB 3769 2802 2 days 7 hours
[i] Focus SPANISH ESPAÑOL DVDRip XviD-DIVXTOTAL 1.34 GB 3652 1062 2 days 1 day
[i] Chicks Dig Gay Guys 2014 720p BluRay x264 AAC-ETRG 646.3 MB 3129 1973 1 day 1 hour
[i] Focus SPANISH ESPAÑOL HDRip XviD-ELITETORRENT 1.83 GB 2982 665 1 day 7 hours
[i] The Mourning 2015 HDRip XviD AC3-EVO
Movies - Thriller , Quality: Audio 8/10 - Video 8/10
1.4 GB 2948 2246 2 days 7 hours
[i] Staten Island Summer 2015 HDRip XviD AC3-EVO
Movies - Comedy , Quality: Audio 8/10 - Video 8/10
1.41 GB 2943 2348 2 days 7 hours
[i] Minions 2015 HD-TS READNFO XVID AC3-VAiN
Movies - Animation , Quality: Audio 6/10 - Video 6/10
1.39 GB 2873 3284 2 days 7 hours
[i] The Longest Ride 2015 BRRip XviD-ETRG
Movies - Drama , Quality: Audio 9/10 - Video 9/10
708.3 MB 2068 2042 2 days 7 hours