Bit Torrent Scene a public file sharing platform Home Upload Categories Collections Blog About

Pacific Rim (2013) DVDRip XviD-MAX

Posted on October 1, 2013 in Movies » Action , downloaded 968 times , verified torrent

Size: 1.58 GB , Seeds: 75 , Peers: 12 ( Updated January 6, 2015 - Refresh )

Quality: Audio 9/10 - Video 9/10 ( defined by users )

* Download via Magnet Link , * To download files you need a Bittorrent Client , * How to download torrents from Bit Torrent Scene?

advertising ( remove )

Internal Files

Pacific Rim (2013) DVDRip XviD-MAXSPEED
Pacific Rim (2013) DVDRip XviD-MAXSPEED www.torentz.3xforum.ro.avi   1.57 GB
sample.avi   7.34 MB
screencaps.jpeg   703.59 KB
Pacific Rim (2013) DVDRip XviD-MAXSPEED.nfo   3.32 KB
Torrent downloaded from Kickass.to.txt   50 Byte
Torrent downloaded from Extratorrent.com.txt   40 Byte
Torrent downloaded from Rarbg.com.txt   33 Byte

Hash Code

610c3141db0c15eb07adbe91509a72cb374d6b9f

Description


http://img10.imageshack.us/img10/5334/gil9.jpg

Screens:

http://img13.imageshack.us/img13/2079/ovdi.jpg
http://img9.imageshack.us/img9/9939/c0fd.jpg
http://img138.imageshack.us/img138/6094/kcw5.jpg
http://img443.imageshack.us/img443/6084/w4kd.jpg

ScreenCaps:

http://cdn.piczend.com/images/DSb5X1VE/1380624616_screencaps.jpeg

Pacific Rim (2013) DVDRip XviD-MAX
Format : AVI
Format/Info : Audio Video Interleave
Format profile : OpenDML
Format settings : rec
File size : 1.57 GiB
Duration : 2h 11mn
Overall bit rate : 1 715 Kbps
Writing application : VirtualDubMod 1.5.10.2 (build 2542/release)
Writing library : VirtualDubMod build 2542/release
Original source form : MAX TORRENTZ
Copyright : SIGISMUNT

Video
ID : 0
Format : MPEG-4 Visual
Format profile : Advanced Simple@L5
Format settings, BVOP : 1
Format settings, QPel : No
Format settings, GMC : No warppoints
Format settings, Matrix : Custom
Codec ID : XVID
Codec ID/Hint : XviD
Duration : 2h 11mn
Bit rate : 1 389 Kbps
Width : 720 pixels
Height : 400 pixels
Display aspect ratio : 16:9
Frame rate : 23.976 fps
Color space : YUV
Chroma subsampling : 4:2:0
Bit depth : 8 bits
Scan type : Progressive
Compression mode : Lossy
Bits/(Pixel*Frame) : 0.201
Stream size : 1.27 GiB (81%)
Writing library : XviD 1.2.1 (UTC 2008-12-04)

Audio
ID : 1
Format : AC-3
Format/Info : Audio Coding 3
Mode extension : CM (complete main)
Format settings, Endianness : Big
Codec ID : 2000
Duration : 2h 11mn
Bit rate mode : Constant
Bit rate : 320 Kbps
Channel(s) : 6 channels
Channel positions : Front: L C R, Side: L R, LFE
Sampling rate : 48.0 KHz
Bit depth : 16 bits
Compression mode : Lossy
Stream size : 300 MiB (19%)
Alignment : Aligned on interleaves
Interleave, duration : 64 ms (1.53 video frames)
Interleave, preload duration : 192 ms

Source: WEBDL DVD (perfect a/v/sync quality,sample included)
This torrent is not seedbox supported,please seed it to the MAX

Note:If you have something to offer as early releases,seedboxes,
links,accounts,etc please contact us on torentz 3xforum ro

Pacific Rim (2013) DVDRip XviD-MAX Torrent Free Download

http://thepiratebay.sx/user/extremezone/0/7/0

How To Get Your MAXSPEED (uTorrent)

Torrent Client - Preferences - Bandwidth - Number of connections - Set aprox. 500 for each
Torrent Client - Preferences - BiTorrent - Protocol Encryption - Forced
Bandwidth Allocation - High (Set download/upload limit - Unlimited)
Stop Other Active Torrents - Start downloading and wait for connections.
Enjoy and Seed for at least 1:1 ratio. Don't forget to say thanks/leave reviews.
Before downloading you should check/google search sample "release name""sample".
Greets to all actual/future p2p/scene QUALITY groups and affiliate websites.
Don't trust IMDb robot or bad ratings,always watch some trailers first.
Ignore stupid comments/fake/mislabeled/no-DVDrips/CAM/TS/RAR uploads.
Please spread this release/torrent to your friends/forums/etc.
If you need translation subs visit some subtitles sites.
Report if you see online streaming or other spam links.
Recommended movie player VLC PLAYER.

Torrent location

http://thepiratebay.sx/torrent/8984194/Pacific_Rim_(2013)_DVDRip_XviD-MAX

Scrape History ( seeds + peers )

Trackers

Refresh Leechers : Updated January 6, 2015

1. http://tracker.thepiratebay.org/announce

2. udp://tracker.openbittorrent.com:80

3. udp://tracker.ccc.de:80

4. udp://tracker.publicbt.com:80

5. udp://tracker.istole.it:80

6. udp://exodus.desync.com:6969

7. udp://tracker.coppersurfer.tk:6969/announce

8. udp://9.rarbg.com:2710/announce

9. http://fr33dom.h33t.eu:3310/announce

10. udp://fr33dom.h33t.eu:3310/announce

11. udp://11.rarbg.com:80/announce

12. udp://ipv4.tracker.harry.lu:80/announce

13. udp://12.rarbg.me:80/announce

14. udp://open.demonii.com:1337/announce

Comments

You must log in to add a comment.

Douggan •94 2013-10-23 19:13:05

AUDIO: 9 - VIDEO: 9

Good video & audio,thanks for the movie

Embed Code

Sharing Widget

Related torrents

FILENAME SIZE SEEDS PEERS ADDED UPD
[i]
[i]
Pacific Rim (2013) DVDRip XviD-MAX
Movies - Action , Quality: Audio 9/10 - Video 9/10
1.58 GB 75 12 1 year 6 months
[i] Pacific Rim [DVDrip][XViD][Español][Spanish] 1.6 GB 23 1 5 days 4 days
[i] Pacific.Rim.2013.DVDRip.XviD.AC3.RoSubbed-playXD 1.37 GB 9 1 11 months 5 months
[i] Pacific.Rim.2013.SWESUB.DVDRip.XviD.AC3-Mr_KeFF 1.81 GB 5 0 1 year 3 months
[i] Pacific Rim 2013 DvDRiP XVID - kely258 [P2PDL] 694.32 MB 3 0 1 year 3 months
[i] Pacific.Heights.1990.AC3.SWESUB.DVDRip.XviD-Martin 1.37 GB 2 0 3 years 8 months
[i]
[i]
Battle of the Pacific 2011 DVDRip XviD 4PlayHD
Movies - Drama , Quality: Audio 8/10 - Video 8/10
750.3 MB 2 1 3 years 2 days
[i] BBC South Pacific (2009) Season 1 DVDrip (Xvid-AC-3) [h33t] [m4ndr4] 4.49 GB 0 0 4 years 8 months
[i] Trains - Steam Across the Pacific Northwest - DvDRip-xvid^D^ 698.82 MB 0 1 3 years 7 months
[i] Hell in the Pacific [1968]DVDRip[Xvid]AC3 2ch[Eng]BlueLady.avi 1.46 GB 0 2 3 years 2 weeks

Top Movies ( auto generated report )

FILENAME SIZE SEEDS PEERS ADDED UPD
[i] Home (2015) 720p BrRip x264 - YIFY
Movies - Animation , Quality: Audio 9/10 - Video 9/10
756.5 MB 17945 7230 3 days 1 day
[i] Spy 2015 HC HDRip XviD AC3-EVO
Movies - Comedy , Quality: Audio 8/10 - Video 8/10
1.43 GB 11696 12124 1 day 16 hours
[i] Spy 2015 1080p HDRip KORSUB x264 AAC2 0-RARBG
Movies - Comedy , Quality: Audio 8/10 - Video 8/10
3.98 GB 9244 9177 1 day 16 hours
[i] Dragon Blade 2015 1080p BRRip x264 DTS-JYK
Movies - Action , Quality: Audio 9/10 - Video 9/10
3.21 GB 8969 11452 3 days 2 days
[i] The Longest Ride (2015) 720p BrRip x264 - YIFY
Movies - Drama , Quality: Audio 9/10 - Video 9/10
874.5 MB 8318 8404 1 day 18 hours
[i] Spy 2015 HC HDRip XviD AC3-EVO 1.43 GB 7401 7186 1 day 15 hours
[i] Home (2015) 1080p BrRip x264 - YIFY
Movies - Animation , Quality: Audio 9/10 - Video 9/10
1.44 GB 7139 4998 2 days 1 day
[i] The Silenced 2015 720p HDRip H264-CINEFOX [MovietaM]
Movies - Horror , Quality: Audio 8/10 - Video 8/10
2.21 GB 6125 1437 4 days 1 day
[i] The Longest Ride (2015) 1080p BrRip x264 - YIFY 1.95 GB 3372 3450 1 day 23 hours
[i] Chappie SPANISH ESPAÑOL HDRip XviD-ELITETORRENT 1.93 GB 3199 1235 2 days 2 days