Bit Torrent Scene a public file sharing platform Home Upload Categories Collections Blog About

{NDS Movie} Richie Rich.DVDrip-Cradle

Posted on April 1, 2011 in Games » Nintendo DS , downloaded 742 times , verified torrent

Size: 281.65 MB , Seeds: 0 , Peers: 0 ( Updated October 31, 2014 - Refresh )

* Download via Magnet Link , * To download files you need a Bittorrent Client , * How to download torrents from Bit Torrent Scene?

advertising ( remove )

External Info

Trailer | Wikipedia | Other Info

Internal Files

{NDS Movie} Richie Rich.DVDrip-Cradle
Richie Rich.dvdrip.dpg   281.09 MB
cradle.nfo   4.15 KB
1337x.org   48 Byte

Hash Code

2b597b00fbe55469ffc723230498215b77451684

Description








-------------------------------

Complete name : {NDS Movie} Richie Rich.DVDrip-Cradle

Format : DPG

Format/Info : Nintendo DS

File size : 281 MiB

Duration : 1h 34mn

Overall bit rate : 416 Kbps



Video

Format : MPEG Video

Format version : Version 1

Format settings, BVOP : No

Format settings, Matrix : Default

Duration : 1s 667ms

Bit rate mode : Variable

Bit rate : 256 Kbps

Width : 256 pixels

Height : 192 pixels

Display aspect ratio : 4:3

Frame rate : 15.000 fps

Original frame rate : 23.976 fps

Color space : YUV

Bit depth : 8 bits

Scan type : Progressive

Compression mode : Lossy

Bits/(Pixel*Frame) : 0.347

Stream size : 173 MiB (62%)



Audio

Format : MPEG Audio

Format version : Version 1

Format profile : Layer 2

Duration : 1h 34mn

Bit rate mode : Constant

Bit rate : 160 Kbps

Channel(s) : 2 channels

Sampling rate : 32.0 KHz

Compression mode : Lossy

Stream size : 108 MiB (38%)

--------------------------------------------------------------------------------











NOTES:

Release Date··[ 26 May 1995 (UK)

IMDB Rating···[ 4.7/10

Genre·········[ Comedy | Family

LINK .........[ http://www.imdb.com/title/tt0110989/



Director:Donald Petrie

Writers:Neil Tolkin (story), Tom S. Parker (screenplay),

Stars:Macaulay Culkin, Edward Herrmann and John Larroquette

Language: English



The richest kid in the world, Richie Rich, has everything he wants, except companionship.

While representing his father at a factory opening



GREETS:

IMAGiNE,Noir,FLAWL3SS,ViSiON,FUSiON,Rx,SecretMyth,BirdFlu,ELEKTRI4KA,SERENiTY,and Autotron

And to all the other p2p grps past and present





THE MORE SEEDS MEANS MORE DS MOVIES RELEASES ! ! ! ! !



all my files are cleaned with




Scrape History ( seeds + peers )

Trackers

Refresh Leechers : Updated October 31, 2014

1. http://nemesis.1337x.org/announce

Comments

You must log in to add a comment.

Embed Code

Sharing Widget

Top Games ( auto generated report )

FILENAME SIZE SEEDS PEERS ADDED UPD
[i] Act.of.Aggression-CODEX 9.28 GB 569 800 1 day 12 hours
[i] FIFA 15 MULTI15 RePack By R.G Mechanics Uploaded-NASWARI+ZOHAIB 6.89 GB 494 429 1 day 13 hours
[i] Mad.Max.Steam.Preload.Edition.Unlocker 95.83 MB 494 28 1 day 10 hours
[i] The Witcher 3: Wild Hunt [v 1.08.3 + 16 DLC] (2015) PC | RePack от xatab 21.14 GB 460 293 1 day 10 hours
[i] Metal Gear Solid V: Ground Zeroes- SEYTER 2.01 GB 401 114 3 days 2 days
[i] STASIS-CODEX 2.7 GB 305 172 3 days 1 day
[i] Mad Max (+ Ripper DLC, MULTI9 - NOT CRACKED) [FitGirl Repack, 100% Lossless] 4.49 GB 287 474 1 day 12 hours
[i] Project CARS [Update 6 + DLC's] (2015) PC | RePack от xatab 12.74 GB 216 198 3 days 1 day
[i] Dead Rising 3 - Apocalypse Edition [Update 6] (2014) PC | RePack от R.G. Catalyst 13.85 GB 216 204 2 days 1 day
[i] Act.of.Aggression-CODEX 9.28 GB 186 549 1 day 10 hours