Bit Torrent Scene a public file sharing platform Home Upload Categories Collections Blog About

Marry Him If You Dare E06 HDTV XVID LIMO

Posted on October 30, 2013 in Series » Misc , downloaded 2 times , verified torrent

Size: 674.82 MB , Seeds: 0 , Peers: 0 ( Updated April 22, 2015 - Refresh )

* Download via Magnet Link , * To download files you need a Bittorrent Client , * How to download torrents from Bit Torrent Scene?

advertising ( remove )

External Info

Subtitles | Trailer | Wikipedia | Other Info

Internal Files

Marry.Him.If.You.Dare.E06.131029.HDTV.XviD-LIMO
Marry.Him.If.You.Dare.E06.131029.HDTV.XviD-LIMO.avi   674.49 MB
Marry.Him.If.You.Dare.E06.131029.HDTV.XviD-LIMO.srt   62.8 KB
ViSiT@@ AreaFiles.org.txt   404 Byte

Hash Code

f7a7aed6a5f51426eee8d748b59479b83b6b3c5c

Description

SCREENSHOT



Details



Title: 미래의 선택 / Mi Rae-ui Suntaek

Also known as: Mi Rae's Choice / Future's Choice / The Choice of the Future / The Future Choice

Genre: Romance, comedy, time travel, fantasy

Episodes: TBA

Broadcast network: KBS2

Broadcast period: 2013-Oct-14 to 2013-Dec-??

Air time: Monday & Tuesday 22:00

Subtitles English



Synopsis

32 years old for woman is an age which may be little too late to start something new or little too early to give up something. The 'future-self' comes to ‘me’ today and gives advices about life and marriage. The future-self is trying to bring better life by helping her to meet a perfect spouse.--KBS World

This drama will tell the story about a 57 years old woman named Na Mi Rae (Choi Myung Gil) from 2038, a television broadcast writer, travels back in time to meet her 32-year-old self (Yoon Eun Hye) from 2013 with the goal of preventing her marriage to Kim Shin (Lee Dong Gun) and thus send her past self down a different path in life.



Main Cast

Yoon Eun Hye as Na Mi Rae (32)

Choi Myung Gil as Na Mi Rae's future self (57)

Lee Dong Gun as Kim Shin (35)

Jung Yong Hwa as Park Se Joo (28)

Han Chae Ah as Seo Yoo Kyung (28)

People in Broadcasting Station

Oh Jung Se as Na Joo Hyun (35)

Lee Mi Do as Bae Hyun Ah (30)

Ahn Se Ha as Lee Jae Soo (32)

Go Doo Shim as Lee Mi Ran (65)



SCREENSHOT





Video

ID : 0

Format : MPEG-4 Visual

Format profile : Advanced Simple@L5

Format settings, BVOP : No

Format settings, QPel : No

Format settings, GMC : No warppoints

Format settings, Matrix : Default (MPEG)

Codec ID : XVID

Codec ID/Hint : XviD

Duration : 1h 6mn

Bit rate : 1 391 Kbps

Width : 624 pixels

Height : 352 pixels

Display aspect ratio : 16:9

Frame rate : 29.970 fps

Color space : YUV

Chroma subsampling : 4:2:0

Bit depth : 8 bits

Scan type : Progressive

Compression mode : Lossy

Bits/(Pixel*Frame) : 0.211

Stream size : 660 MiB (87%)

Writing library : XviD 1.2.1 (UTC 2008-12-04)



Audio

ID : 1

Format : MPEG Audio

Format version : Version 1

Format profile : Layer 3

Mode : Joint stereo

Mode extension : MS Stereo

Codec ID : 55

Codec ID/Hint : MP3

Duration : 1h 6mn

Bit rate mode : Constant

Bit rate : 128 Kbps

Channel(s) : 2 channels

Sampling rate : 48.0 KHz

Compression mode : Lossy

Stream size : 60.8 MiB (8%)

Alignment : Aligned on interleaves

Writing library : LAME3.98.2

Language : un

Torrent location

http://extratorrent.cc/torrent/3276580/Marry+Him+If+You+Dare+E06+HDTV+XVID+LIMO.html

Scrape History ( seeds + peers )

Trackers

Refresh Leechers : Updated April 22, 2015

1. http://94.228.192.98/announce

2. http://bigfoot1942.sektori.org:6969/announce

3. http://announce.torrentsmd.com:8080/announce

4. http://tracker.nwps.ws:6969/announce

5. udp://11.rarbg.me:80/announce

6. udp://open.demonii.com:1337/announce

7. udp://tracker.istole.it:80

8. udp://tracker.istole.it:80/announce

9. udp://9.rarbg.com:2710/announce

Comments

You must log in to add a comment.

Embed Code

Sharing Widget

Related torrents

FILENAME SIZE SEEDS PEERS ADDED UPD
[i] Someone Marry Barry (2014) 720p BrRip x264 - YIFY 698.5 MB 163 14 3 months 2 weeks
[i] MomsTeachSex - Audrey Show, Marry Lynn (Pull Your Pants Down) NEW 08 June 2015 247.07 MB 99 20 4 weeks 2 weeks
[i] Someone Marry Barry (2014) 1080p BrRip x264 - YIFY 1.23 GB 78 14 3 months 2 weeks
[i] Marry Me 2014 S01E02 HDTV x264-LOL [eztv] 140.63 MB 49 2 8 months 2 months
[i] Marry Me 2014 S01E01 HDTV x264-LOL [eztv] 183.63 MB 49 0 8 months 2 months
[i] Someone Marry Barry 2014 FRENCH DVDRip XviD-ALBOY 709.32 MB 45 0 2 months 1 week
[i] [Joymii]Marry Queen - Sex
posted by nsanyi23 in Porn - Movies
337.82 MB 39 16 3 days 2 days
[i] Marry Me 2014 S01E07 HDTV x264-LOL [eztv] 143.13 MB 34 2 7 months 1 month
[i] Marry Me 2014 S01E03 HDTV x264-LOL [eztv] 168.63 MB 33 0 8 months 2 months
[i]
[i]
21 Great Ways to Meet and Marry the Woman of Your Dreams - Brian Tracy - Mantesh (Audio Books)
posted by Mantesh in Misc - Audio Books
30.63 MB 31 0 7 months 1 month

Top Series ( auto generated report )

FILENAME SIZE SEEDS PEERS ADDED UPD
[i] Dark Matter S01E04 HDTV x264-ASAP[ettv]
Series - Misc , Quality: Audio 9/10 - Video 9/10
231.32 MB 6600 786 2 days 7 hours
[i] Wayward Pines S01E07 HDTV x264-LOL[ettv]
Series - Misc , Quality: Audio 9/10 - Video 9/10
270.32 MB 6508 700 4 days 1 day
[i] Under the Dome S03E03 HDTV x264-LOL[rartv]
Series - Misc , Quality: Audio 8/10 - Video 9/10
298.82 MB 5631 998 3 days 2 days
[i] Ballers 2015 S01E03 HDTV x264-ASAP[ettv]
Series - Misc , Quality: Audio 9/10 - Video 9/10
294.07 MB 8515 3619 14 hours 4 hours
[i] Killjoys S01E03 HDTV x264-ASAP[ettv]
Series - Misc , Quality: Audio 9/10 - Video 9/10
340.82 MB 3334 482 2 days 7 hours
[i] Penny Dreadful S02E10 HDTV x264-LOL[ettv]
Series - Misc , Quality: Audio 9/10 - Video 9/10
251.82 MB 9720 3698 14 hours 4 hours
[i] Hannibal S03E05 HDTV x264-LOL[ettv]
Series - Misc , Quality: Audio 9/10 - Video 9/10
156.32 MB 3452 365 3 days 2 days
[i] Falling Skies S05E02 HDTV x264-ASAP[ettv]
Series - Misc , Quality: Audio 9/10 - Video 9/10
398.82 MB 9107 4263 14 hours 4 hours
[i] Defiance S03E05 HDTV x264-ASAP[ettv]
Series - Misc , Quality: Audio 9/10 - Video 9/10
327.32 MB 2939 446 2 days 1 day
[i] Hannibal S03E05 720p HDTV X264-DIMENSION[rartv] 720.32 MB 2818 404 3 days 2 days