Bit Torrent Scene a public file sharing platform Home Upload Categories Collections Blog About

John Carter DVDRIP LATINO

Posted on May 19, 2012 in Movies » Misc , downloaded 12 times

Size: 805.3 MB , Seeds: 0 , Peers: 0 ( Updated June 2, 2015 - Refresh )

* Download via Magnet Link , * To download files you need a Bittorrent Client , * How to download torrents from Bit Torrent Scene?

advertising ( remove )

External Info

Subtitles | Trailer | Wikipedia | Other Info

Internal Files

John Cartet 2012 DVDRip Latino.avi
John Cartet 2012 DVDRip Latino.avi   804.85 MB

Hash Code

b9df16eefff1a5ca8e6e74336d5cfe24df7099b7

Description


Generalidades

Calificación: 7,0/10 34.863 votos »
Director: Andrew Stanton
Escritores:
Andrew Stanton (guión) &
Mark Andrews (guión) ...
Ver más »
Fecha de Estreno: 9 marzo 2012 (Colombia)
Género: Acción | Aventura | Fantasía | Ciencia-Ficción

Idioma: Español latino
Subtitulos: No

Video
ID : 0
Format : MPEG-4 Visual
Format profile : Simple@L3
Format settings, BVOP : No
Format settings, QPel : No
Format settings, GMC : No warppoints
Format settings, Matrix : Default (H.263)
Codec ID : XVID
Codec ID/Hint : XviD
Duration : 2h 12mn
Bit rate : 747 Kbps
Width : 608 pixels
Height : 256 pixels
Display aspect ratio : 2.35:1
Frame rate : 23.976 fps
Color space : YUV
Chroma subsampling : 4:2:0
Bit depth : 8 bits
Scan type : Progressive
Bits/(Pixel*Frame) : 0.200
Stream size : 705 MiB (88%)
Writing library : XviD 1.2.1 (UTC 2008-12-04)

Audio
ID : 1
Format : MPEG Audio
Format version : Version 1
Format profile : Layer 3
Mode : Joint stereo
Mode extension : MS Stereo
Codec ID : 55
Codec ID/Hint : MP3
Duration : 2h 12mn
Bit rate mode : Constant
Bit rate : 96.0 Kbps
Channel(s) : 2 channels
Sampling rate : 48.0 KHz
Stream size : 90.7 MiB (11%)
Alignment : Split accross interleaves
Interleave, duration : 42 ms (1.00 video frame)
Interleave, preload duration : 500 ms
Language : Latin / Aragonese

Torrent location

http://thepiratebay.se/torrent/7280108/John_Carter_DVDRIP_LATINO

Scrape History ( seeds + peers )

Trackers

Refresh Leechers : Updated June 2, 2015

1. http://tracker.thepiratebay.org/announce

2. udp://tracker.openbittorrent.com:80

3. udp://tracker.ccc.de:80

4. udp://tracker.publicbt.com:80

Comments

You must log in to add a comment.

Embed Code

Sharing Widget

Top Movies ( auto generated report )

FILENAME SIZE SEEDS PEERS ADDED UPD
[i] Home (2015) 720p BrRip x264 - YIFY
Movies - Animation , Quality: Audio 9/10 - Video 9/10
756.5 MB 16871 5601 3 days 1 hour
[i] Spy 2015 1080p HDRip KORSUB x264 AAC2 0-RARBG
Movies - Comedy , Quality: Audio 8/10 - Video 8/10
3.98 GB 10845 8708 1 day 1 hour
[i] Spy 2015 HC HDRip XviD AC3-EVO
Movies - Comedy , Quality: Audio 8/10 - Video 8/10
1.43 GB 10737 9211 1 day 1 hour
[i] The Longest Ride (2015) 720p BrRip x264 - YIFY
Movies - Drama , Quality: Audio 9/10 - Video 9/10
874.5 MB 9750 5890 1 day 1 hour
[i] Dragon Blade 2015 1080p BRRip x264 DTS-JYK
Movies - Action , Quality: Audio 9/10 - Video 9/10
3.21 GB 8969 11452 3 days 2 days
[i] Spy 2015 HC HDRip XviD AC3-EVO 1.43 GB 7401 7186 1 day 17 hours
[i] Home (2015) 1080p BrRip x264 - YIFY
Movies - Animation , Quality: Audio 9/10 - Video 9/10
1.44 GB 7139 4998 2 days 1 day
[i] The Silenced 2015 720p HDRip H264-CINEFOX [MovietaM]
Movies - Horror , Quality: Audio 8/10 - Video 8/10
2.21 GB 6125 1437 4 days 1 day
[i] Un Village Presque Parfait 2014 FRENCH DVDRiP x264-Ryotox mkv 893.82 MB 3723 2452 49 min 49 min
[i] The Longest Ride (2015) 1080p BrRip x264 - YIFY 1.95 GB 3372 3450 1 day 1 day