Bit Torrent Scene a public file sharing platform Home Upload Categories Collections Blog About

Ice age 3 [dublat romana]

Posted on December 7, 2010 in Movies » Misc , downloaded 80 times

Size: 865.3 MB , Seeds: 2 , Peers: 0 ( Updated October 18, 2014 - Refresh )

* Download via Magnet Link , * To download files you need a Bittorrent Client , * How to download torrents from Bit Torrent Scene?

advertising ( remove )

External Info

Subtitles | Trailer | Wikipedia | Other Info

Internal Files

Ice age 3 [dublat romana]
Ice age 3 [dublat romana].avi   864.7 MB
info.txt   1.68 KB

Hash Code

02402e5c1970d50185ebd46cbceddc63ddfc0a10

Description


Format : MPEG-4 Visual
Format profile : Simple@L3
Format settings, BVOP : No
Format settings, QPel : No
Format settings, GMC : No warppoints
Format settings, Matrix : Default (H.263)
Codec ID : XVID
Codec ID/Hint : XviD
Duration : 1h 30mn
Bit rate : 1 199 Kbps
Width : 640 pixels
Height : 480 pixels
Display aspect ratio : 4:3
Frame rate : 25.000 fps
Resolution : 8 bits
Colorimetry : 4:2:0
Scan type : Progressive
Bits/(Pixel*Frame) : 0.156
Stream size : 774 MiB (89%)
Writing library : XviD 1.1.0 Beta2 (UTC 2005-04-04)

Audio
ID : 1
Format : MPEG Audio
Format version : Version 1
Format profile : Layer 3
Mode : Joint stereo
Format_Settings_ModeExtension : MS Stereo
Codec ID : 55
Codec ID/Hint : MP3
Duration : 1h 30mn
Bit rate mode : Constant
Bit rate : 128 Kbps
Channel(s) : 2 channels
Sampling rate : 48.0 KHz
Stream size : 82.6 MiB (10%)
Alignment : Aligned on interleaves
Interleave, duration : 24 ms (0.60 video frame)
Writing library : LAME3.96.1

Scrape History ( seeds + peers )

Trackers

Refresh Leechers : Updated October 18, 2014

1. http://tracker.thepiratebay.org/announce

2. udp://tracker.thepiratebay.org:80/announce

3. http://tracker.openbittorrent.com/announce

4. udp://tracker.openbittorrent.com:80/announce

5. udp://tracker.publicbt.com:80/announce

6. http://tracker.publicbt.com/announce

Comments

You must log in to add a comment.

Embed Code

Sharing Widget

Top Movies ( auto generated report )

FILENAME SIZE SEEDS PEERS ADDED UPD
[i] Southpaw 2015 HDRip XviD-ETRG
Movies - Drama , Quality: Audio 9/10 - Video 9/10
708.3 MB 19875 17094 2 days 2 days
[i] San Andreas 2015 720p WEB-DL x264 AAC-JYK
Movies - Action , Quality: Audio 9/10 - Video 9/10
2.38 GB 11671 7771 2 days 3 hours
[i] Magic.Mike.XXL.2015.HDRip.XViD.AC3-ETRG 1.39 GB 10268 11205 3 days 2 days
[i] All Creatures Big and Small (2015) 1080p BrRip x264 - YIFY 1.23 GB 6247 6512 2 days 2 days
[i] Straight.Outta.Compton.2015.HC.HDRip.XViD.AC3-ETRG
Movies - Drama , Quality: Audio 9/10 - Video 9/10
1.45 GB 6228 4921 2 days 1 day
[i] Spy 2015 HDRip XviD-ETRG
Movies - Comedy , Quality: Audio 8/10 - Video 8/10
705.3 MB 5640 4951 3 days 2 days
[i] The Eternal Zero 2014 FRENCH BDRip XviD-AlioZ avi 1.03 GB 4811 1345 3 days 2 days
[i] Citizenfour (2014) 1080p BrRip x264 - YIFY
Movies - Documentary , Quality: Audio 9/10 - Video 9/10
1.65 GB 3278 1675 3 days 2 days
[i] Nirnayakam (2015) Malayalam DVDRip x264 700 Mb ZippyMovieZ ExCluSivE
Movies - Drama , Quality: Audio 9/10 - Video 9/10
701.3 MB 3132 2537 3 days 2 days
[i] Self less 2015 HDRip XviD AC3-EVO
Movies - Sci-Fi , Quality: Audio 8/10 - Video 8/10
1.43 GB 2915 1789 2 days 1 day